[PV] Nogizaka46 - Kanashimi no Wasurekata [SSTV]

[PV] Nogizaka46 - Kanashimi no Wasurekata [SSTV]

Complete name               : D:\merged_videos\[PV] Nogizaka46 - Kanashimi no Wasurekata [SSTV]-HEVC.VOZ48.mkv
Format                      : Matroska
Format version              : Version 4 / Version 2
File size                   : 146 MiB
Duration                    : 4mn 45s
Overall bit rate            : 4 289 Kbps
Encoded date                : UTC 2015-12-18 10:44:23
Writing application         : mkvmerge v8.6.1 ('Flying') 64bit
Writing library             : libebml v1.3.3 + libmatroska v1.4.4
 
Video
ID                          : 2
Format                      : HEVC
Format/Info                 : High Efficiency Video Coding
Format profile              : Main@L4.1@Main
Codec ID                    : V_MPEGH/ISO/HEVC
Duration                    : 4mn 45s
Bit rate                    : 4 123 Kbps
Width                       : 1 920 pixels
Height                      : 1 080 pixels
Display aspect ratio        : 16:9
Frame rate mode             : Constant
Frame rate                  : 59.940 (60000/1001) fps
Color space                 : YUV
Chroma subsampling          : 4:2:0
Bit depth                   : 8 bits
Bits/(Pixel*Frame)          : 0.033
Stream size                 : 140 MiB (96%)
Title                       : [PV] Nogizaka46 - Kanashimi no Wasurekata [SSTV]-HEVC.VOZ48
Writing library             : x265 1.8+2-55a4a9b920ff:[Windows][GCC 5.2.0][64 bit] 8bit+10bit+12bit
Encoding settings           : wpp / ctu=32 / min-cu-size=16 / max-tu-size=32 / tu-intra-depth=1 / tu-inter-depth=1 / me=0 / subme=0 / merange=57 / no-rect / no-amp / max-merge=2 / temporal-mvp / early-skip / rdpenalty=0 / no-tskip / no-tskip-fast / strong-intra-smoothing / no-lossless / no-cu-lossless / no-constrained-intra / fast-intra / open-gop / no-temporal-layers / interlace=0 / keyint=250 / min-keyint=25 / scenecut=0 / rc-lookahead=5 / lookahead-slices=0 / bframes=3 / bframe-bias=0 / b-adapt=0 / ref=1 / limit-refs=0 / no-weightp / no-weightb / aq-mode=0 / qg-size=32 / aq-strength=0.00 / cbqpoffs=0 / crqpoffs=0 / rd=2 / psy-rd=0.30 / rdoq-level=0 / psy-rdoq=0.00 / no-signhide / deblock / no-sao / no-sao-non-deblock / b-pyramid / no-cutree / rc=crf / crf=23.0 / qcomp=0.60 / qpmin=0 / qpmax=51 / qpstep=4 / vbv-maxrate=16500 / vbv-bufsize=16500 / crf-max=0.0 / ipratio=1.40 / pbratio=1.30
Language                    : Japanese
Default                     : Yes
Forced                      : No
 
Audio
ID                          : 1
Format                      : AAC
Format/Info                 : Advanced Audio Codec
Format profile              : LC
Codec ID                    : A_AAC
Duration                    : 4mn 45s
Bit rate                    : 162 Kbps
Channel(s)                  : 2 channels
Channel positions           : Front: L R
Sampling rate               : 48.0 KHz
Frame rate                  : 46.875 fps (1024 spf)
Compression mode            : Lossy
Delay relative to video     : 21ms
Stream size                 : 5.51 MiB (4%)
Title                       : [PV] Nogizaka46 - Kanashimi no Wasurekata [SSTV]-HEVC.VOZ48
Language                    : Japanese
Default                     : Yes
Forced                      : No
Download

Bình luận