[MV] AKB48 "New" Team Surprise M16. Hoppe, Tsuneru (DRIP)

[MV] AKB48 "New" Team Surprise M16. Hoppe, Tsuneru (DRIP)

Name               : AKB48 Team Surprise - M16 Hoppe, Tsuneru-60p.mkv
Format                      : Matroska
Format version              : Version 4 / Version 2
File size                   : 278 MiB
Duration                    : 4mn 15s
Overall bit rate mode       : Variable
Overall bit rate            : 9 136 Kbps
Encoded date                : UTC 2015-12-20 04:39:10
Writing application         : mkvmerge v8.6.1 ('Flying') 64bit
Writing library             : libebml v1.3.3 + libmatroska v1.4.4 / VOZ48 Encoder [Privated]
Copyright                   : VOZ48 Authors
Copyright/Url               : http://fb.com/voz48official

Video
ID                          : 1
Format                      : AVC
Format/Info                 : Advanced Video Codec
Format profile              : High@L4.1
Format settings, CABAC      : Yes
Format settings, ReFrames   : 4 frames
Codec ID                    : V_MPEG4/ISO/AVC
Duration                    : 4mn 15s
Bit rate mode               : Variable
Bit rate                    : 8 928 Kbps
Maximum bit rate            : 16.5 Mbps
Width                       : 1 280 pixels
Height                      : 720 pixels
Display aspect ratio        : 16:9
Frame rate mode             : Constant
Frame rate                  : 59.940 (60000/1001) fps
Color space                 : YUV
Chroma subsampling          : 4:2:0
Bit depth                   : 8 bits
Scan type                   : Progressive
Bits/(Pixel*Frame)          : 0.162
Stream size                 : 272 MiB (98%)
Title                       : AKB48 Team Surprise - M16 Hoppe, Tsuneru
Writing library             : x264 core 148 r2638 7599210
Encoding settings           : cabac=1 / ref=2 / deblock=1:0:0 / analyse=0x3:0x113 / me=hex / subme=4 / psy=1 / psy_rd=1.00:0.00 / mixed_ref=0 / me_range=16 / chroma_me=1 / trellis=1 / 8x8dct=1 / cqm=0 / deadzone=21,11 / fast_pskip=1 / chroma_qp_offset=0 / threads=16 / lookahead_threads=4 / sliced_threads=0 / nr=0 / decimate=1 / interlaced=0 / bluray_compat=0 / constrained_intra=0 / bframes=3 / b_pyramid=2 / b_adapt=1 / b_bias=0 / direct=1 / weightb=1 / open_gop=0 / weightp=1 / keyint=58 / keyint_min=4 / scenecut=40 / intra_refresh=0 / rc_lookahead=20 / rc=crf / mbtree=1 / crf=21.0 / qcomp=0.50 / qpmin=10 / qpmax=51 / qpstep=4 / vbv_maxrate=16500 / vbv_bufsize=33000 / crf_max=0.0 / nal_hrd=vbr / filler=0 / ip_ratio=1.10 / aq=1:1.00
Language                    : Japanese
Default                     : Yes
Forced                      : No

Audio
ID                          : 2
Format                      : AAC
Format/Info                 : Advanced Audio Codec
Format profile              : LC
Codec ID                    : A_AAC
Duration                    : 4mn 15s
Bit rate                    : 203 Kbps
Channel(s)                  : 2 channels
Channel positions           : Front: L R
Sampling rate               : 48.0 KHz
Frame rate                  : 46.875 fps (1024 spf)
Compression mode            : Lossy
Delay relative to video     : 21ms
Stream size                 : 6.17 MiB (2%)
Title                       : AKB48 Team Surprise - M16 Hoppe, Tsuneru
Language                    : Japanese
Default                     : Yes
Forced                      : No

===

Name               : AKB48 Team Surprise - M16 01 Hoppe, Tsuneru.mkv
Format                      : Matroska
Format version              : Version 4 / Version 2
File size                   : 170 MiB
Duration                    : 4mn 15s
Overall bit rate            : 5 572 Kbps
Encoded date                : UTC 2015-12-20 03:40:47
Writing application         : mkvmerge v8.6.1 ('Flying') 64bit
Writing library             : libebml v1.3.3 + libmatroska v1.4.4 / VOZ48 HEVC Encoder [Privated]
Copyright                   : VOZ48 Authors
Copyright/Url               : http://fb.com/voz48official

Video
ID                          : 1
Format                      : HEVC
Format/Info                 : High Efficiency Video Coding
Format profile              : Main@L5.1@Main
Codec ID                    : V_MPEGH/ISO/HEVC
Duration                    : 4mn 15s
Bit rate                    : 5 367 Kbps
Width                       : 1 280 pixels
Height                      : 720 pixels
Display aspect ratio        : 16:9
Frame rate mode             : Constant
Frame rate                  : 23.976 (24000/1001) fps
Color space                 : YUV
Chroma subsampling          : 4:2:0
Bit depth                   : 8 bits
Bits/(Pixel*Frame)          : 0.243
Stream size                 : 163 MiB (96%)
Title                       : AKB48 Team Surprise - M16 01 Hoppe, Tsuneru
Writing library             : x265 1.8+2-55a4a9b920ff:[Windows][GCC 5.2.0][64 bit] 8bit+10bit+12bit
Encoding settings           : wpp / ctu=32 / min-cu-size=16 / max-tu-size=32 / tu-intra-depth=1 / tu-inter-depth=1 / me=0 / subme=0 / merange=57 / no-rect / no-amp / max-merge=2 / temporal-mvp / early-skip / rdpenalty=0 / no-tskip / no-tskip-fast / strong-intra-smoothing / no-lossless / no-cu-lossless / no-constrained-intra / fast-intra / open-gop / no-temporal-layers / interlace=0 / keyint=250 / min-keyint=23 / scenecut=0 / rc-lookahead=5 / lookahead-slices=0 / bframes=3 / bframe-bias=0 / b-adapt=0 / ref=1 / limit-refs=0 / no-weightp / no-weightb / aq-mode=0 / qg-size=32 / aq-strength=0.00 / cbqpoffs=0 / crqpoffs=0 / rd=2 / psy-rd=0.30 / rdoq-level=0 / psy-rdoq=0.00 / no-signhide / deblock / no-sao / no-sao-non-deblock / b-pyramid / no-cutree / rc=crf / crf=21.0 / qcomp=0.60 / qpmin=0 / qpmax=51 / qpstep=4 / vbv-maxrate=16500 / vbv-bufsize=33000 / crf-max=0.0 / ipratio=1.40 / pbratio=1.30
Language                    : Japanese
Default                     : Yes
Forced                      : No

Audio
ID                          : 2
Format                      : AAC
Format/Info                 : Advanced Audio Codec
Format profile              : LC
Codec ID                    : A_AAC
Duration                    : 4mn 15s
Bit rate                    : 203 Kbps
Channel(s)                  : 2 channels
Channel positions           : Front: L R
Sampling rate               : 48.0 KHz
Frame rate                  : 46.875 fps (1024 spf)
Compression mode            : Lossy
Delay relative to video     : 21ms
Stream size                 : 6.17 MiB (4%)
Title                       : AKB48 Team Surprise - M16 01 Hoppe, Tsuneru
Language                    : Japanese
Default                     : Yes
Forced                      : No

Download

Bình luận