[Vietsub] 150424 Documentary of 「AKB48 Team 8 1 Year Miracle」

[Vietsub] 150424 Documentary of 「AKB48 Team 8 1 Year Miracle」

HEVC (616MB) | H264 (823MB)

MediaInfo (H264)

General

Name               : [Vietsub] 150424 Documentary of  「AKB48 Team 8 1 Year Miracle」.1080p-H264.VOZ48-FHD.mp4
Format                      : MPEG-4
Format profile              : Base Media / Version 2
Codec ID                    : mp42 (mp42/mp41/isom/avc1)
File size                   : 823 MiB
Duration                    : 25mn 58s
Overall bit rate mode       : Variable
Overall bit rate            : 4 430 Kbps
Movie name                  : [Vietsub] 150424 Documentary of  「AKB48 Team 8 1 Year Miracle」.1080p-H264.VOZ48-FHD
Album                       : [Vietsub] 150424 Documentary of  「AKB48 Team 8 1 Year Miracle」.1080p-H264.VOZ48-FHD
Track name/Position         : 1
Performer                   : AKB48 Team 8
Genre                       : Documentary
Recorded date               : 2015
Encoded date                : UTC 2016-02-07 03:37:58
Tagged date                 : UTC 2016-02-07 03:37:58
Writing application         : VOZ48 Encoder [Privated]
Copyright                   : AKS/KING RECORDS/TOYOTA
©pub                        : VOZ48 Authors
WWW                         : fb.com/voz48official
 
Video
ID                          : 1
Format                      : AVC
Format/Info                 : Advanced Video Codec
Format profile              : High@L4
Format settings, CABAC      : Yes
Format settings, ReFrames   : 4 frames
Codec ID                    : avc1
Codec ID/Info               : Advanced Video Coding
Duration                    : 25mn 58s
Bit rate                    : 4 169 Kbps
Width                       : 1 920 pixels
Height                      : 1 080 pixels
Display aspect ratio        : 16:9
Frame rate mode             : Constant
Frame rate                  : 29.970 (30000/1001) fps
Color space                 : YUV
Chroma subsampling          : 4:2:0
Bit depth                   : 8 bits
Scan type                   : Progressive
Bits/(Pixel*Frame)          : 0.067
Stream size                 : 775 MiB (94%)
Writing library             : x264 core 148 r11 a01e339
Encoding settings           : cabac=1 / ref=4 / deblock=1:0:0 / analyse=0x3:0x113 / me=umh / subme=8 / psy=1 / psy_rd=1.00:0.00 / mixed_ref=1 / me_range=16 / chroma_me=1 / trellis=1 / 8x8dct=1 / cqm=0 / deadzone=21,11 / fast_pskip=1 / chroma_qp_offset=-2 / threads=34 / lookahead_threads=5 / sliced_threads=0 / nr=0 / decimate=1 / interlaced=0 / bluray_compat=0 / stitchable=1 / constrained_intra=0 / bframes=3 / b_pyramid=2 / b_adapt=2 / b_bias=0 / direct=3 / weightb=1 / open_gop=0 / weightp=2 / keyint=infinite / keyint_min=29 / scenecut=40 / intra_refresh=0 / rc_lookahead=50 / rc=crf / mbtree=1 / crf=20.0 / qcomp=0.60 / qpmin=5 / qpmax=69 / qpstep=4 / vbv_maxrate=4950 / vbv_bufsize=13500 / crf_max=0.0 / nal_hrd=none / filler=0 / ip_ratio=1.40 / aq=1:1.00
Encoded date                : UTC 2016-02-07 03:37:58
Tagged date                 : UTC 2016-02-07 03:37:58
Color range                 : Limited
Color primaries             : BT.709
Transfer characteristics    : BT.709
Matrix coefficients         : BT.709
 
Audio
ID                          : 2
Format                      : AAC
Format/Info                 : Advanced Audio Codec
Format profile              : LC
Codec ID                    : 40
Duration                    : 25mn 58s
Bit rate mode               : Variable
Bit rate                    : 256 Kbps
Channel(s)                  : 2 channels
Channel positions           : Front: L R
Sampling rate               : 48.0 KHz
Frame rate                  : 46.875 fps (1024 spf)
Compression mode            : Lossy
Stream size                 : 47.6 MiB (6%)
Encoded date                : UTC 2016-02-07 03:37:58
Tagged date                 : UTC 2016-02-07 03:37:58
Download

Bình luận